Ninja-Cube Index du Forum
 
 
 
Ninja-Cube Index du ForumFAQRechercherS’enregistrerConnexion

Cento-X-Cento---Qualcosa-di-Diverso-(2012) 30.05.2016

 
Poster un nouveau sujet   Répondre au sujet    Ninja-Cube Index du Forum -> TECHNIQUES - NINJUTSU -> KATON - FEU
Sujet précédent :: Sujet suivant  
Auteur Message
neiander


Hors ligne

Inscrit le: 06 Avr 2016
Messages: 155
Masculin

MessagePosté le: Lun 30 Mai 2016 - 13:33    Sujet du message: Cento-X-Cento---Qualcosa-di-Diverso-(2012) 30.05.2016 Répondre en citant




Cento-X-Cento---Qualcosa-di-Diverso-(2012) > urlin.us/2hilw







Cento-X-Cento---Qualcosa-di-Diverso-(2012)


518e411f6f
comments/reviews 140 . 20:0413200 Visti un giro sul cazzo cento x cent. To see The Video Click in the link, wait 5 seconds, and click in SKIP THIS AD
. Cento X Cento Qualcosa di Diverso (2012) Torrents Video 998.79 Mb found 3 years ago seeders:0 leechers:1 your vote: real: 0 fake: 0 . 12:148860 Visti agitare bene cento x cento una donna matura porca e in calore che non vede l'ora di eccitarsi com.

Size: 999 MBTorrent ContentsCento X Cento - Qualcosa di Diverso (2012)880 Qualcosa di Diverso.jpg 0 MB Qualcosa di Diverso.avi 998 MB Qualcosa di Diverso.jpg 0 MB Please note that this page does not hosts or makes available any of the listed filenames. Sample info: Duration: 01:23:00.96, start: 0.000000, bitrate: 1681 kb/s Stream #0.0: Video: mpeg4 (Advanced Simple Profile), yuv420p, 704x512 [PAR 1:1 DAR 11:8], 25 tbr, 25 tbn, 25 tbc Stream #0.1: Audio: mp3, 48000 Hz, stereo, s16, 128 kb/s. Letitbit.net no rar. Be careful of what you download or face the consequences.You need a client like qBittorrent, Deluge or Transmission to download. Direct-Download :Cento X Cento - Qualcosa di Diverso (2012) Total size : 999.00M ( Click to see file details. Share: . altre belle zoccole che ci presenta la cento x cento come questa porce.


[/hide]


Revenir en haut
Publicité






MessagePosté le: Lun 30 Mai 2016 - 13:33    Sujet du message: Publicité

PublicitéSupprimer les publicités ?
Revenir en haut
Montrer les messages depuis:   
Poster un nouveau sujet   Répondre au sujet    Ninja-Cube Index du Forum -> TECHNIQUES - NINJUTSU -> KATON - FEU Toutes les heures sont au format GMT + 2 Heures
Page 1 sur 1

 
Sauter vers:  

Index | Panneau d’administration | Creer un forum | Forum gratuit d’entraide | Annuaire des forums gratuits | Signaler une violation | Conditions générales d'utilisation
Template lost-kingdom_Tolede created by larme d'ange
Powered by phpBB © 2001, 2005 phpBB Group
Traduction par : phpBB-fr.com